Thứ Sáu, ngày 17 tháng 5 năm 2013

Tân Thủy Hử 2011 - Thuyết Minh - All Men are Brothers 2011

All Men are Brothers 2011 VIE 720p HDTV x264
[ Tân Thủy Hử 2011 - Thuyết Minh ]



All Men are Brothers 2011 Vietnamese 720P HDTV x264 Full 86 Eps(Thủy hử 2011) 



Code:
Format                           : Matroska
File size                        : 1.49 GiB
Duration                         : 44mn 28s
Overall bit rate                 : 4 799 Kbps
Movie name                       : Encoded By HDCTV Team
Encoded date                     : UTC 2011-08-22 15:41:52
Writing application              : mkvmerge v4.9.1 ('Ich will') built on Jul 11 2011 23:53:15
Writing library                  : libebml v1.2.1 + libmatroska v1.1.1

Video
ID                               : 1
Format                           : AVC
Format/Info                      : Advanced Video Codec
Format profile                   : High@L3.1
Format settings, CABAC           : Yes
Format settings, ReFrames        : 5 frames
Muxing mode                      : Header stripping
Codec ID                         : V_MPEG4/ISO/AVC
Duration                         : 44mn 28s
Bit rate                         : 4 100 Kbps
Width                            : 1 280 pixels
Height                           : 720 pixels
Display aspect ratio             : 16:9
Frame rate                       : 25.000 fps
Color space                      : YUV
Chroma subsampling               : 4:2:0
Bit depth                        : 8 bits
Scan type                        : Progressive
Bits/(Pixel*Frame)               : 0.178
Stream size                      : 1.24 GiB (83%)
Title                            : terliu@HDCTV
Writing library                  : x264 core 98 r1649 c54c47d
Encoding settings                : cabac=1 / ref=5 / deblock=1:-3:-3 / analyse=0x3:0x113 / me=umh / subme=7 / psy=1 / psy_rd=1.00:0.00 / mixed_ref=1 / me_range=16 / chroma_me=1 / trellis=1 / 8x8dct=1 / cqm=0 / deadzone=21,11 / fast_pskip=0 / chroma_qp_offset=-2 / threads=24 / sliced_threads=0 / nr=0 / decimate=0 / interlaced=0 / constrained_intra=0 / bframes=6 / b_pyramid=2 / b_adapt=1 / b_bias=0 / direct=3 / weightb=1 / weightp=2 / keyint=250 / keyint_min=25 / scenecut=40 / intra_refresh=0 / rc_lookahead=40 / rc=2pass / mbtree=1 / bitrate=4100 / ratetol=1.0 / qcomp=0.60 / qpmin=10 / qpmax=51 / qpstep=4 / cplxblur=20.0 / qblur=0.5 / vbv_maxrate=20000 / vbv_bufsize=20000 / ip_ratio=1.40 / aq=1:1.00 / nal_hrd=none
Language                         : Chinese

Audio #1
ID                               : 2
Format                           : MPEG Audio
Format version                   : Version 1
Format profile                   : Layer 3
Mode                             : Joint stereo
Mode extension                   : MS Stereo
Muxing mode                      : Header stripping
Codec ID                         : A_MPEG/L3
Codec ID/Hint                    : MP3
Duration                         : 44mn 28s
Bit rate mode                    : Constant
Bit rate                         : 128 Kbps
Channel(s)                       : 2 channels
Sampling rate                    : 48.0 KHz
Compression mode                 : Lossy
Delay relative to video          : 1s 16ms
Stream size                      : 40.7 MiB (3%)
Language                         : Vietnamese

Audio #2
ID                               : 3
Format                           : AC-3
Format/Info                      : Audio Coding 3
Mode extension                   : CM (complete main)
Muxing mode                      : Header stripping
Codec ID                         : A_AC3
Duration                         : 44mn 28s
Bit rate mode                    : Constant
Bit rate                         : 384 Kbps
Channel(s)                       : 6 channels
Channel positions                : Front: L C R, Side: L R, LFE
Sampling rate                    : 48.0 KHz
Bit depth                        : 16 bits
Compression mode                 : Lossy
Stream size                      : 122 MiB (8%)
Title                            : Chinese
Language                         : Chinese

Audio #3
ID                               : 4
Format                           : AC-3
Format/Info                      : Audio Coding 3
Mode extension                   : CM (complete main)
Muxing mode                      : Header stripping
Codec ID                         : A_AC3
Duration                         : 44mn 28s
Bit rate mode                    : Constant
Bit rate                         : 192 Kbps
Channel(s)                       : 2 channels
Channel positions                : Front: L R
Sampling rate                    : 48.0 KHz
Bit depth                        : 16 bits
Compression mode                 : Lossy
Stream size                      : 61.1 MiB (4%)
Title                            : Chinese
Language                         : Chinese

Text #1
ID                               : 5
Format                           : UTF-8
Codec ID                         : S_TEXT/UTF8
Codec ID/Info                    : UTF-8 Plain Text
Title                            : Chs
Language                         : Chinese

Text #2
ID                               : 6
Format                           : UTF-8
Codec ID                         : S_TEXT/UTF8
Codec ID/Info                    : UTF-8 Plain Text
Title                            : Cht
Language                         : Chinese
Tân Thuỷ Hử có độ dài 86 tập với kinh phí đầu tư khoảng 1 tỷ nhân dân tệ. Đoàn làm phim cũng vừa tiết lộ một cảnh quay của Trương Hàm Dư (Tống Giang) và Cảnh Cương Sơn (Công Tôn Sinh) trong tư thế đấu kiếm, cùng tạo hình của các diễn viên Công Tôn Sinh (do Cảnh Cương Sơn đóng) và Yến Thanh (do Nghiêm Khoan thủ vai)…

Nguyên tác : Thi Nại Am
Thời lượng : 86 tập
Khởi quay : tháng 9/2009
Đóng máy : tháng 6/2010
Phát sóng : 1/2011
Đạo diễn : Cúc Giác Lượng
Biên kịch : Ôn Thế Hào

Diễn viên chính :

Tống Giang - Trương Hàm Dư
Ngô Dụng - Lý Tông Hàn
Tiều Cái - Lữ Lương Vỹ
Lư Tuấn Nghĩa - Vương Kiến Tân
Yến Thanh - Nghiêm Khoan
Võ Tòng - Trần Long
Hoa Vinh - Trương Địch
Lâm Xung - Hồ Đông
Lâm nương tử - Viên Vịnh Nghi
Lý Sư Sư - An Dĩ Hiên
Phan Kim Liên - Cam Đình Đình
Hộ Tam Nương - Lưu Tiểu Tiểu
Cố Đại Tẩu - Hồ Khả
Tôn Nhị Nương - Hà Giai Di
Diêm Bà Tích - Hùng Nãi Cẩn
Tây Môn Khánh - Đỗ Thuần
Sài Tiến - Huỳnh Hải Băng
Đổng Bình - Vu Bác
Dương Chí - Cao Hổ
Trương Thanh - Trương Hiểu Thần
Công Tôn Thắng - Cảnh Cương Sơn
Thạch Tú - Lưu Quán Tường
Lý Quỳ - Khang Khải
Lỗ Trí Thâm - Tấn Tùng
Sử Tiến - Hàn Đống
Tống Huy Tông - Dương Tử
Cao Cầu - Lý Tử Hùng
Sử Văn Cung - Kế Xuân Hoa

Tập 01: Hồng Thái Úy ngộ tẩu yêu ma


Tập 02: Thạch Kiệt thôn thất tinh tụ hội


Tập 03: Cửu Văn Long tư tẩu Đông Kinh thành


Tập 04: Lỗ đề hạt hiệp trợ Kim Thúy Liên


Tập 05: Quyền đả Trấn Quan Tây


Tập 06: Lỗ Đạt thế độ Văn Thù tự


Tập 07: Báo Tử Đầu ngộ nhập Bạch hổ đường


Tập 08: Đảo bạt thùy dương liễu


Tập 09: Đại náo rừng dã trư


Tập 10: Lâm Xung bổng đả Hồng giáo đầu


Tập 11: Trí Thâm hỏa thiêu Ngõa Quán tự


Tập 12: Lâm giáo đầu phong tuyết sơn thần miếu


Tập 13: Bức thượng Lương Sơn


Tập 14: Dương Chí mãi đao


Tập 15: Trí thủ Sinh thần cương


Tập 16: Tống Công Minh tư phóng Tiều Thiên Vương


Tập 17: Hỏa thiêu Vương Luân


Tập 18: Tống Giang thu thú Diêm Tích Kiều


Tập 19: Trương Văn Viễn tình hãm Ô Long viện


Tập 20: Tọa lâu sát Tích


Tập 21: Trí thủ Nhị long sơn


Tập 22: Võ Tòng đả hổ


Tập 23: Phan Kim Liên can đả Tây Môn Khánh


Tập 24: Kim Liên túy dụ Võ Nhị Lang


Tập 25: Vương bà tham hối thuyết phong tình


Tập 26: Vương bà kế khích Tây Môn Khánh


Tập 27: Ác phụ dược độc Võ Đại Lang


Tập 28: Võ Tòng sát tẩu


Tập 29: Đèo Thập tự Mẫu Dạ Xoa khai điếm


Tập 30: Võ Tòng viện thủ trợ thi ân


Tập 31: Túy đả Tưởng Môn thần


Tập 32: Đại náo Phi vân phố


Tập 33: Huyết tiện Uyên ương lầu


Tập 34: Tống Giang dạ túc Thanh Phong trại


Tập 35: Hoa Vinh tiễn xạ Phích Lịch Hỏa


Tập 36: Núi Yết Dương, Tống giang gặp Lý Tuấn


Tập 37: Hắc Toàn Phong đấu lãng Lý Bạch Điều


Tập 38: Tầm Dương lâu phản thi đề vách


Tập 39: Thần Hành Thái Bảo truyền giả tin


Tập 40: Lương Sơn Bạc hảo hán cướp pháp trường


Tập 41: Trương Thuận nhanh bắt Hoàng Văn Bính


Tập 42: Chân giả Lý Quỳ


Tập 43: Bính Mệnh Tam Lang kết bái Bệnh Quan Tác


Tập 44: Dương Hùng say mắng Phan Xảo Vân


Tập 45: Chúc gia trang Thời Thiên trộm gà


Tập 46: Phốc thiên điêu song tu sinh tử thư


Tập 47: Nhất Trượng Thanh đơn bắt Vương Nụy Hổ


Tập 48: Tam đả Chúc gia trang


Tập 49: Vương Anh lấy vợ


Tập 50: Mỹ Nhiệm Công ngộ thất Tiểu Nha Nội


Tập 51: Nhập Vân Long đấu pháp phá Cao Đường


Tập 52: Cổ Thượng Tảo trộm giáp


Tập 53: Đại phá liên hoàn mã


Tập 54: Vượt tam sơn Tống Giang mạo hiểm


Tập 55: Ngô Dụng hoán mệnh thuyết chư tướng


Tập 56: Tam sơn đồng tâm quy Thủy Bạc


Tập 57: Đêm đánh thành Tằng Đầu


Tập 58: Tiều Thiên Vương trúng tiễn


Tập 59: Trí Đa Tinh kế lừa Ngọc Kỳ Lân


Tập 60: Lư Tuấn Nghĩa lầm đánh Yến Tiểu Ất


Tập 61: Cướp pháp trường Thạch Tú liều mạng


Tập 62: Tống Giang binh đánh Đại danh phủ


Tập 63: Mẫu Đại Trùng nửa đêm truyền tín


Tập 64: Quan Thắng bàn thủ Lương Sơn Bạc


Tập 65: An Đạo Toàn thần y cứu Tống Giang


Tập 66: Cập Thời Vũ nhượng vị Ngọc Kỳ Lân


Tập 67: Lư Tuấn Nghĩa bắt sống Sử Văn Cung


Tập 68: Tống Công Minh nghĩa thả Song Thương Tướng


Tập 69: Một Vũ Tiễn phi thạch đả anh hùng


Tập 70: Lương Sơn Bạc anh hùng xếp hạng


Tập 71: Hắc Toàn Phong giận chém hạnh hoàng kỳ


Tập 72: Lý Quỳ phụ kinh


Tập 73: Yến Thanh đả lôi


Tập 74: Huyện Thọ Trương Lý Quỳ làm quan huyện


Tập 75: Nguyễn Thị tam hùng chọc khâm sai


Tập 76: Ngũ hổ thượng tướng đả Đồng Quán


Tập 77: Chúng hảo hán hề lạc Cao Thái Úy


Tập 78: Thủy chiến bắt Cao Cầu


Tập 79: Lương Sơn mở tiệc nhận chiêu an


Tập 80: Yến Thanh tích biệt Lý Sư Sư


Tập 81: Thư hùng Một Vũ Tiễn đấu hội Phương Nham Sơn


Tập 82: Lương Sơn phụng chiếu thảo Phương Lạp


Tập 83: Trương Thuận hồn quy Dũng Kim Môn


Tập 84: Võ Tòng một tay bắt Phương Lạp


Tập 85: Tống Công Minh áo gấm về quê


Tập 86: Lòng trung thấu trời


End